Movies → Safe House 2012 CAM READNFO XviD-ZOMBiES (702.25 Mb)

15 Feb 2012, 07:35

Download

1796cad31d.jpg83151791880806490141.gif

Matt Weston (’Ryan Reynolds’ ) is a CIA rookie who is manning a safe house in Cape Town, South Africa, when Tobin Frost (Denzel Washington) the CIA’s most wanted rogue agent is captured and taken to the safe house. During Frost’s interrogation, the safe house is overtaken by mercenaries who want Frost. Weston and Frost escape and must stay out of the gunmen’s sight until they can get to another safe house.

82196441630763930958.gif

Please login or register to download
or
Download here directly at 100Mbit

14143488955348589654.gif
Release Name : Safe House 2012 CAM XviD-ZOMBiES
Rating : 6.8/10
Genre : Action, Crime, Mystery, Thriller
Stars : Denzel Washington, Ryan Reynolds, Robert Patrick, Vera Farmiga
Director : Daniel Espinosa
Writers : David Guggenheim
Release Date : 10 Feb 2012
Movie Runtime : 1 hr 55 mins
Rated Under : R
Format : AVI
Format/Info : Audio Video Interleave
File size : 702 MiB
Duration : 1h 45mn
Overall bit rate : 934 Kbps
Writing application : MEncoder SVN-r33823-4.1.2
Writing library : MPlayer

Video
ID : 0
Format : MPEG-4 Visual
Format profile : Advanced Simple@L5
Format settings, BVOP : Yes
Format settings, QPel : No
Format settings, GMC : No warppoints
Format settings, Matrix : Default (MPEG)
Codec ID : DX50
Codec ID/Hint : DivX 5
Duration : 1h 45mn
Bit rate : 794 Kbps
Width : 640 pixels
Height : 272 pixels
Display aspect ratio : 2.35:1
Frame rate : 25.000 fps
Color space : YUV
Chroma subsampling : 4:2:0
Bit depth : 8 bits
Scan type : Progressive
Bits/(Pixel*Frame) : 0.182
Stream size : 597 MiB (85%)
Writing library : XviD 1.2.1 (UTC 2008-12-04)

Audio
ID : 1
Format : MPEG Audio
Format version : Version 1
Format profile : Layer 3
Mode : Joint stereo
Mode extension : MS Stereo
Codec ID : 55
Codec ID/Hint : MP3

Bit rate mode : Constant
Bit rate : 128 Kbps
Channel(s) : 2 channels
Sampling rate : 44.1 KHz
Bit depth : 16 bits
Stream size : 96.3 MiB (14%)
Alignment : Aligned on interleaves
Interleave, duration : 26 ms (0.65 video frame)
Interleave, preload duration : 522 ms
Writing library : LAME3.98.4

19305744137057208307.gif123456789

Keywords Safe House 2012 CAM READNFO XviD-ZOMBiES, Safe House, 2012, CAM, READNFO, XviD, -ZOMBiES, Safe House 2012, CAM READNFO XviD-ZOMBiES

to download, click below
Safe House 2012 CAM READNFO XviD-ZOMBiES.avi (702.25 Mb)

HIT "+" IF YOU LIKE MY POSTS

Rating 6 Comments 0
Reply

You have to login or register to post comments.

roshanrbb
roshanrbb
469 ♠ 266 ♣
Tweet:
Bookmark and Share