Movies → Chronicle 2012 TS V2 READNFO XViD AC3-26K (882.04 Mb)

15 Feb 2012, 07:50

Download

Chronicle 2012 TS V2 READNFO XViD AC3-26K
c4f519db96.jpg83151791880806490141.gif
Three high school friends gain superpowers after making an incredible discovery. Soon, though, they find their lives spinning out of control and their bond tested as they embrace their darker sides.

14143488955348589654.gif
Video
ID : 0
Format : MPEG-4 Visual
Format profile : Advanced Simple@L5
Format settings, BVOP : 2
Format settings, QPel : No
Format settings, GMC : No warppoints
Format settings, Matrix : Default (H.263)
Codec ID : XVID
Codec ID/Hint : XviD
Duration : 1h 15mn
Bit rate : 1 393 Kbps
Width : 720 pixels
Height : 288 pixels
Display aspect ratio : 2.500
Frame rate : 25.000 fps
Color space : YUV
Chroma subsampling : 4:2:0
Bit depth : 8 bits
Scan type : Progressive
Compression mode : Lossy
Bits/(Pixel*Frame) : 0.269
Stream size : 755 MiB (86%)
Writing library : XviD 64

Audio
ID : 1
Format : AC-3
Format/Info : Audio Coding 3
Mode extension : CM (complete main)
Codec ID : 2000
Duration : 1h 15mn
Source duration : 1h 15mn
Bit rate mode : Constant
Bit rate : 224 Kbps
Channel(s) : 2 channels
Channel positions : Front: L R
Sampling rate : 44.1 KHz
Bit depth : 16 bits
Compression mode : Lossy
Stream size : 121 MiB (14%)
Alignment : Aligned on interleaves
Interleave, duration : 35 ms (0.87 video frame)

82196441630763930958.gif

Please login or register to download
or
Use alternative full direct 100Mbit download

19305744137057208307.gif123456789

Keywords Chronicle 2012 TS V2 READNFO XViD AC3-26K (882.04 Mb), Chronicle, 2012, TS, V2, READNFO, XViD, AC3-26K, (882.04 Mb), Chronicle 2012, TS V2 READNFO XViD AC3-26K (882.04 Mb)

TO download click link below
Chronicle 2012 TS V2 READNFO XViD AC3-26K.avi (882.04 Mb)

HIT "+" IF YOU LIKE MY POSTS

Rating 4 Comments 0
Reply

You have to login or register to post comments.

roshanrbb
roshanrbb
469 ♠ 266 ♣
Tweet:
Bookmark and Share